* Dettagli Torrent   globale  | Commenti (0) 


- Poveri ma ricchissimi (2017).H264.italian.Ac3-5.1.sub.nNUita.MIRCrew -


Download via torrent:
Categoria bittorrent BDRip
Descrizione
Poveri ma ricchissimi (2017).H264.italian.Ac3-5.1.sub.NUita.MIRCrew



NO FOUND ONLY ORIGINAL RELEASE




My release is always in double track audio italian and Original audio
for select it use VLC or dvd player home
not use wmp

SOTTOTITOLI ITALIANI PER NON UDENTI INCLUSI

Poveri ma ricchissimi

(2017)







GENERE: Commedia
ANNO: 2017
REGIA: Fausto Brizzi
PAESE: Italia
DURATA: 94 Min



Christian De Sica, Enrico Brignano, Lucia Ocone, Lodovica Comello, Anna Mazzamauro, Bebo Storti, Ubaldo Pantani, Tess Masazza, Kai Portman, Paolo Rossi, Massimo Ciavarro, Federica Lucaferri



Grazie all'astuto Kevi che ha messo in salvo i risparmi di famiglia, i Tucci di Torresecca sono ancora i milionari più screanzati d'Italia. Scivolata nella spassosa ostentazione del lusso in Poveri ma ricchi



Thanks to the clever Kevi who saved the family savings, the Tucci of Torresecca are still the most screanzati millionaires in Italy. Slipped into the hilarious ostentation of luxury in Poor but rich













[spoiler]
General
Unique ID                                : 333628925487726018010095776996612771347 (0xFAFE9802B0C9A28F3E97A11F23EA0E13)
Complete name                            : Poveri ma ricchissimi (2017).h264.ita.sub.NUita - MIRCrew\Poveri ma ricchissimi (2017).h264.ita.sub.NUita - MIRCrew.mkv
Format                                   : Matroska
Format version                           : Version 2
File size                                : 1.16 GiB
Duration                                 : 1h 34mn
Overall bit rate                         : 1 764 Kbps
Movie name                               : MIRCrew
Encoded date                             : UTC 2018-04-25 10:42:15
Writing application                      : Lavf54.63.100
Writing library                          : Lavf54.63.100
COPYRIGHT                                : robbyrs - Il Corsaronero

Video
ID                                       : 1
Format                                   : AVC
Format/Info                              : Advanced Video Codec
Format profile                           : [email protected]
Format settings, CABAC                   : Yes
Format settings, ReFrames                : 2 frames
Codec ID                                 : V_MPEG4/ISO/AVC
Duration                                 : 1h 34mn
Bit rate                                 : 1 280 Kbps
Width                                    : 720 pixels
Height                                   : 304 pixels
Display aspect ratio                     : 2.40:1
Original display aspect ratio            : 2.40:1
Frame rate mode                          : Variable
Frame rate                               : 24.000 fps
Color space                              : YUV
Chroma subsampling                       : 4:2:0
Bit depth                                : 8 bits
Scan type                                : Progressive
Bits/(Pixel*Frame)                       : 0.244
Stream size                              : 863 MiB (73%)
Writing library                          : x264 core 130 r2273
Encoding settings                        : cabac=1 / ref=2 / deblock=1:0:0 / analyse=0x1:0x131 / me=hex / subme=7 / psy=1 / psy_rd=1.00:0.00 / mixed_ref=0 / me_range=16 / chroma_me=1 / trellis=1 / 8x8dct=0 / cqm=0 / deadzone=21,11 / fast_pskip=1 / chroma_qp_offset=-2 / threads=3 / lookahead_threads=1 / sliced_threads=0 / nr=0 / decimate=1 / interlaced=0 / bluray_compat=0 / constrained_intra=0 / bframes=3 / b_pyramid=0 / b_adapt=1 / b_bias=0 / direct=3 / weightb=1 / open_gop=0 / weightp=2 / keyint=240 / keyint_min=24 / scenecut=40 / intra_refresh=0 / rc_lookahead=40 / rc=abr / mbtree=1 / bitrate=1280 / ratetol=1.0 / qcomp=0.60 / qpmin=10 / qpmax=69 / qpstep=4 / vbv_maxrate=24000 / vbv_bufsize=24000 / nal_hrd=none / ip_ratio=1.40 / aq=1:1.00
Language                                 : Italian
Default                                  : Yes
Forced                                   : No
DURATION                                 : 01:34:13.959000000
NUMBER_OF_FRAMES                         : 135695
NUMBER_OF_BYTES                          : 6902730660
_STATISTICS_WRITING_APP                  : mkvmerge v9.5.0 ('Quiet Fire') 64bit
_STATISTICS_WRITING_DATE_UTC             : 2018-04-06 17:40:26
_STATISTICS_TAGS                         : BPS DURATION NUMBER_OF_FRAMES NUMBER_OF_BYTES

Audio
ID                                       : 2
Format                                   : AC-3
Format/Info                              : Audio Coding 3
Mode extension                           : CM (complete main)
Codec ID                                 : A_AC3
Duration                                 : 1h 34mn
Bit rate mode                            : Constant
Bit rate                                 : 448 Kbps
Channel(s)                               : 6 channels
Channel positions                        : Front: L C R, Side: L R, LFE
Sampling rate                            : 48.0 KHz
Bit depth                                : 16 bits
Compression mode                         : Lossy
Delay relative to video                  : 1mn 5s
Stream size                              : 302 MiB (25%)
Title                                    : AC3 ITA
Language                                 : Italian
Default                                  : No
Forced                                   : No
DURATION                                 : 01:34:14.016000000
NUMBER_OF_FRAMES                         : 176688
NUMBER_OF_BYTES                          : 452321280
_STATISTICS_WRITING_APP                  : mkvmerge v9.5.0 ('Quiet Fire') 64bit
_STATISTICS_WRITING_DATE_UTC             : 2018-04-06 17:40:26
_STATISTICS_TAGS                         : BPS DURATION NUMBER_OF_FRAMES NUMBER_OF_BYTES

Menu
00:00:00.000                             : :00:00:00.000
00:07:05.342                             : :00:07:05.342
00:14:28.201                             : :00:14:28.201
00:20:13.838                             : :00:20:13.838
00:29:27.099                             : :00:29:27.099
00:39:02.590                             : :00:39:02.590
00:50:56.804                             : :00:50:56.804
00:59:52.756                             : :00:59:52.756
01:08:53.129                             : :01:08:53.129
01:16:19.950                             : :01:16:19.950
01:25:27.706                             : :01:25:27.706
01:30:23.259                             : :01:30:23.259


[/spoiler]



Info: Per scaricare devi usare un client come uTorrent o Transmission
AnnounceURL
udp://tracker.coppersurfer.tk:6969/announce
Hash 72ebe5b58aefc3b89c0c8c6da32c12a43a2edfbc
Peers seeds: 103 , leech: 73
Size 1.16 GB
Completato 371x
Aggiunto 27.04.18 - 22:04:20
Uploader   robbyrs
Votazione (Voti: 1)


Condividi questo bittorrent:


html/blog:


bbcode/forum:




Aggiungi Commento


counter